Hãy đăng ký thành viên để có thể dễ dàng trao đổi, giao lưu và chia sẻ về kiến thức đồ họa.
  1. Hãy đăng ký subscribe kênh Youtube mới của Việt Designer tại địa chỉ: Youtube.com/VietDesignerChannel để theo dõi các video về thiết kế đồ họa. Do trước đó kênh cũ bị Youtube quét không rõ lý do, trong thời gian chờ kháng cáo nếu các bạn thấy video trên diễn đàn bị die không xem được thì có thể vào kênh mới để tìm xem video sơ cua nhé.
    Loại bỏ thông báo

[Hài 18+] Naked and Funny 800 tập và nhiều phần khác

Chủ đề thuộc danh mục 'Video clip - Phim ảnh' được đăng bởi sonpham, 29/8/14.

Lượt xem: 5,051

  1. sonpham Thành viên cấp 1

    Em không biết những clip sau có vi phạm nội quy diễn dàn không, nếu có mong các anh/chị del topic giúp ạ.

    [​IMG]
    Code:
    Nội dung:
    It turns out the sex - it is not only pleasant, but still fun! Program «Funny and naked» - the best proof. Removed thousands of sex movies, written books, composed many songs. But laugh at «that» can not everyone. The creators of the show focus on the jokes just for adults. Unbelievable situations with taste klubnichki waiting for you in each series. Imagine that you spokotsno go on the street. Suddenly the police officer stops you and requests to support the «very important evidence». All would be nothing but evidence in favor ... Inflatable woman. Good company! And how do you respond to the great unknown, which is directly in front of everyone to apply a one blouse, then another? .. What do you do if you came to the office for an interview zastukaete boss and secretary at the crime 

    Code:
    Info:
    Code:
    Video
    ID : 0
    Format : MPEG-4 Visual
    Format settings, BVOP : Yes
    Format settings, QPel : No
    Format settings, GMC : No warppoints
    Format settings, Matrix : Default (H.263)
    Muxing mode : Packed bitstream
    Codec ID : DX50
    Codec ID/Hint : DivX 5
    Duration : 32s 40ms
    Bit rate : 1 589 Kbps
    Width : 736 pixels
    Height : 544 pixels
    Display aspect ratio : 4:3
    Frame rate : 25.000 fps
    Color space : YUV
    Chroma subsampling : 4:2:0
    Bit depth : 8 bits
    Scan type : Progressive
    Bits/(Pixel*Frame) : 0.159
    Stream size : 6.07 MiB (96%)
    Writing library : DivX 6.4.0 (UTC 2006-10-03)
    
    
    Audio
    ID : 1
    Format : MPEG Audio
    Format version : Version 2
    Format profile : Layer 3
    Mode : Joint stereo
    Mode extension : Intensity Stereo + MS Stereo
    Codec ID : 55
    Codec ID/Hint : MP3
    Duration : 32s 112ms
    Bit rate mode : Constant
    Bit rate : 56.0 Kbps
    Channel(s) : 2 channels
    Sampling rate : 24.0 KHz
    Stream size : 220 KiB (3%)
    Alignment : Split accross interleaves
    Interleave, duration : 40 ms (1.01 video frame)
    Interleave, preload duration : 500 ms
    
    Screenshot

    Mở màn với 800 tập nha các bác

    Phần 1 (1-300)
    Fshare - Dich vu chia se, luu tru du lieu mien phi tot nhat

    Phần 2 (301-600)
    Fshare - Dich vu chia se, luu tru du lieu mien phi tot nhat

    Phần 3 (601-800)
    Fshare - Dich vu chia se, luu tru du lieu mien phi tot nhat

    Thấy hay hãy :like: cho em nha :D

    ...
    Phạm Hữu Dư thích bài viết này
  2. huynhtoan.it

    huynhtoan.it Thành viên cấp 2

    Đã xem

Ủng hộ diễn đàn